Có gì mới?

Welcome to Tạp Chí CNTT & Truyền Thông

Join us now to get access to all our features. Once registered and logged in, you will be able to create topics, post replies to existing threads, give reputation to your fellow members, get your own private messenger, and so, so much more. It's also quick and totally free, so what are you waiting for?

[MU] [MV - Full HD] KARA(카라) - STEP(단계) (GOMTV)

  • Thread starter china
  • Ngày bắt đầu
  • Tagged users Không có

china

Administrator
Tham gia
19/11/08
Bài viết
9,013
Điểm tương tác
23
Điểm
38
Tuổi
38
Website
tapchiict.com

Format : AVI
Format/Info : Audio Video Interleave
File size : 253 MiB
Duration : 3mn 20s
Overall bit rate : 10.6 Mbps
Writing application : GOM ENCODER (GAviWriter 1.0)

Video
ID : 0
Format : AVC
Format/Info : Advanced Video Codec
Format profile : [email protected]
Format settings, CABAC : Yes
Format settings, ReFrames : 1 frame
Codec ID : H264
Duration : 3mn 20s
Bit rate : 10 000 Kbps
Width : 1 920 pixels
Height : 1 080 pixels
Display aspect ratio : 16:9
Frame rate : 24.000 fps
Original frame rate : 23.976 fps
Color space : YUV
Chroma subsampling : 4:2:0
Bit depth : 8 bits
Scan type : Progressive
Bits/(Pixel*Frame) : 0.201
Stream size : 246 MiB (97%)
Writing library : x264 core 130322772
Encoding settings : cabac=1 / ref=1 / deblock=1:0:0 / analyse=0x1:0x111 / me=hex / subme=5 / brdo=0 / mixed_ref=0 / me_range=16 / chroma_me=1 / trellis=0 / 8x8dct=0 / cqm=0 / deadzone=21,11 / chroma_qp_offset=0 / slices=4 / nr=0 / decimate=1 / mbaff=0 / bframes=0 / keyint=239 / keyint_min=1 / scenecut=40 / rc=abr / bitrate=10000 / ratetol=1.0 / rceq='blurCplx^(1-qComp)' / qcomp=0.50 / qpmin=10 / qpmax=40 / qpstep=4 / ip_ratio=1.40

Audio
ID : 1
Format : MPEG Audio
Format version : Version 1
Format profile : Layer 3
Mode : Joint stereo
Codec ID : 55
Codec ID/Hint : MP3
Duration : 3mn 20s
Bit rate mode : Variable
Bit rate : 288 Kbps
Channel(s) : 2 channels
Sampling rate : 44.1 KHz
Compression mode : Lossy
Stream size : 6.85 MiB (3%)
Alignment : Aligned on interleaves
Interleave, duration : 26 ms (0.63 video frame)
Interleave, preload duration : 2 ms
[DOWN]http://www.megaupload.com/?d=A0FNUIW8[/DOWN]
 

Facebook Comment

Similar threads

Description : Info : Requirements : Android 4.1 + Size : 20 mb DOWNLOAD Uploaded http://ul.to/3uxqwikk Turbobit http://turbobit.net/gs0yrcj117u2.html
Trả lời
0
Xem
245
Phim Phiêu lưu Hành động Siêu HAY BOM TẤN 2015 không thể bỏ qua Spooks: The Greater Good 2015 720p WEB-DL DD5.1 H.264-RARBG Điệp Viên Siêu Đẳng (Kit Harington, Tuppence Middleton, Jennifer Ehle, Lara Pulver) Mã:Video ID : 1 Format : AVC Format/Info : Advanced Video Codec Format profile...
Trả lời
0
Xem
843
Terminator Genisys (tt1340138) Terminator Genisys 2015 1080p HC HDRip X264 AC3-EVO ~ Kẻ Hủy Diệt 5: Thời Đại GENISYS Terminator Genisys 2015 1080p HC HDRip X264 AC3-EVO Kẻ Hủy Diệt 5: Thời Đại GENISYS Ratings: 7/10 from 72.330 users Nội dung phim Media Info General Complete name ...
Trả lời
0
Xem
301
Một chương trình đồ họa không giống như những chương trình khác. Dự án Dogwaffle Howler cho phép bạn vẽ với một số lượng lớn các phương tiện truyền thông phong cách tự nhiên cũng như các phương tiện truyền thông độc đáo như những phần tử trang trí, bàn chải động và nhiều hơn nữa. Thiết bị máy...
Trả lời
0
Xem
636
Digital information is stored using a series of ones and zeros. Computers are digital machines because they can only read information as on or off -- 1 or 0. This method of computation, also known as the binary system, may seem rather simplistic, but can be used to represent incredible amounts...
Trả lời
0
Xem
590

Latest resources

Bên trên Bottom